<?xml version="1.0" standalone="no"?>
<!DOCTYPE svg PUBLIC "-//W3C//DTD SVG 1.1//EN" "http://www.w3.org/Graphics/SVG/1.1/DTD/svg11.dtd" >
<svg xmlns="http://www.w3.org/2000/svg">
<metadata>Generated by IcoMoon</metadata>
<defs>
<font id="icomoon" horiz-adv-x="1024">
<font-face units-per-em="1024" ascent="960" descent="-64" />
<missing-glyph horiz-adv-x="1024" />
<glyph unicode="&#x20;" horiz-adv-x="512" d="" />
<glyph unicode="&#xe900;" glyph-name="CHECK1" d="M710.042 612.915c-10.445 9.728-21.555 18.33-33.229 25.907 3.482 7.68 6.912 15.36 10.445 23.040 19.917 34.918 39.987 69.734 60.416 104.346 3.738 6.298-1.28 11.162-6.861 13.261-4.045 7.987-29.645 3.994-34.202-5.171-15.462-31.181-30.413-62.618-45.107-94.208-4.71-8.243-9.37-16.538-14.080-24.832-94.771 44.954-215.040 30.515-301.67-27.955-8.909-5.99-5.018-13.312 4.045-15.053 11.981-2.304 26.010 3.021 35.789 9.574 71.834 48.486 169.984 44.134 242.381-1.024-47.565-84.582-93.798-169.882-138.496-256.051-28.57 37.171-57.088 74.342-85.658 111.514-2.458 3.174-7.424 4.147-12.902 3.686-11.725 2.97-32.768-5.478-29.184-15.002 23.347-61.594 53.453-120.32 89.6-175.206-0.666-4.198 1.792-6.912 5.683-8.397 9.472-14.029 19.2-27.853 29.44-41.318 7.526-9.882 31.437-0.461 34.765 9.318 40.806 118.118 86.682 234.394 137.216 348.621 64.307-57.344 96.768-149.914 80.026-234.701-10.342-52.326-39.014-98.15-71.834-139.315-32.563-40.858-70.042-82.483-125.491-86.272-102.707-6.963-211.712 62.925-246.323 160-20.736 58.266-16.64 128.563 0.461 187.29 13.466 46.285 48.384 109.312 103.424 112.333 10.547 0.563 27.187 3.43 33.587 13.107 6.144 9.318-5.274 12.544-12.954 12.134-59.802-3.328-116.224-34.714-148.070-85.965-33.946-54.579-43.315-123.853-39.578-187.187 7.578-127.386 117.862-220.518 240.282-235.213 66.918-8.038 135.014 7.578 186.675 52.173 46.592 40.243 87.859 94.72 112.947 150.989 44.39 99.533 17.92 221.338-61.594 295.526zM459.827 344.678c-0.563 0.973-1.075 1.894-1.638 2.867 0.717-0.922 1.382-1.792 2.099-2.714-0.154 0-0.256-0.102-0.41-0.154zM515.789 330.496c-1.587 2.048-3.174 4.147-4.762 6.195 8.55 16.589 17.050 33.178 25.702 49.715-7.117-18.586-14.080-37.222-20.941-55.859z" />
<glyph unicode="&#xe901;" glyph-name="CHECK" d="M705.28 728.73c-4.198 8.294-30.874 4.198-35.584-5.376-16.077-32.461-31.642-65.229-46.95-98.048-62.003-108.134-121.702-217.6-179.098-328.192-29.696 38.707-59.443 77.363-89.139 116.070-2.56 3.328-7.731 4.352-13.414 3.789-12.186 3.072-34.099-5.734-30.362-15.616 24.32-64.102 55.654-125.235 93.286-182.374-0.666-4.352 1.843-7.219 5.939-8.755 9.83-14.592 19.968-28.979 30.669-43.008 7.834-10.291 32.717-0.461 36.198 9.728 50.432 145.92 108.186 289.229 172.8 429.414 20.736 36.352 41.626 72.602 62.874 108.646 3.891 6.554-1.331 11.622-7.168 13.824zM412.774 276.122c-0.563 0.973-1.126 1.997-1.741 2.97 0.717-0.922 1.434-1.894 2.15-2.816-0.154-0.051-0.307-0.102-0.461-0.154zM470.989 261.376c-1.638 2.15-3.277 4.301-4.966 6.451 8.909 17.254 17.766 34.509 26.778 51.712-7.424-19.354-14.643-38.758-21.811-58.163z" />
<glyph unicode="&#xe902;" glyph-name="CHECK3" d="M777.83 470.016c-11.93 50.074-38.298 96.307-74.342 130.304-4.403 4.147-9.165 8.294-14.131 12.288 5.837 12.749 11.674 25.446 17.664 38.144 17.715 37.581 36.454 75.571 55.654 113.050 2.406 4.659 2.406 9.626 0 13.875-2.97 5.274-9.318 9.011-16.23 9.523-11.008 0.819-25.498-3.482-31.334-14.899-21.965-42.854-43.93-87.859-65.229-133.786-77.722 41.062-176.026 42.445-258.099 3.226-13.363-6.4-25.856-13.517-37.12-21.248-4.864-3.328-9.984-9.165-9.677-15.616 0.102-2.253 1.024-6.451 5.99-9.574-33.075-16.742-61.44-44.544-79.309-78.182-13.158-24.781-22.374-53.76-27.443-86.118-5.171-33.28-6.451-65.434-3.738-95.539 5.325-59.29 33.331-112.794 80.998-154.675 44.237-38.912 101.581-63.898 161.485-70.451 9.728-1.075 19.354-1.587 28.826-1.587 24.422 0 47.821 3.482 68.813 10.394 28.979 9.472 57.805 26.061 85.658 49.254 43.674 36.403 78.643 87.91 101.12 148.941 10.086 27.341 15.667 52.275 17.050 76.186 1.536 25.805-0.717 51.507-6.656 76.442zM572.109 150.989l-0.717-0.256s-0.512-0.154-0.922-0.307c-1.741-0.563-3.482-1.075-5.222-1.587-2.816-0.768-5.632-1.485-8.141-2.099-1.485-0.256-3.021-0.461-4.403-0.87-1.126-0.205-2.253-0.358-3.379-0.563-3.635-0.512-7.27-0.973-10.957-1.28-11.469-1.024-24.627-0.717-39.014 0.819-10.906 1.178-23.962 3.789-36.659 7.27-24.218 6.656-47.667 17.254-69.786 31.488-44.646 28.723-77.414 69.683-92.314 115.354-8.141 24.986-11.52 52.736-10.445 84.941 1.075 30.618 4.71 57.446 11.264 81.971 7.27 27.443 18.534 50.944 33.331 69.888 5.888 7.526 14.694 16.23 22.374 22.221 3.277 2.56 9.165 6.502 13.722 9.114 0.819 0.461 1.638 0.922 2.509 1.434l1.485 0.717c2.97 1.382 5.939 2.765 8.96 3.942l4.301 1.485c1.536 0.461 3.072 0.819 4.608 1.229 1.229 0.307 2.406 0.614 3.686 0.922h0.051s4.096 0.614 4.096 0.614c2.765 0.358 5.786 0.563 9.267 0.717 8.499 0.358 25.344 6.195 27.648 18.534 0.922 4.864-0.87 8.141-2.509 10.035-4.557 5.274-13.67 5.99-20.48 5.683-2.099-0.102-4.147-0.205-6.246-0.41 1.946 1.024 3.942 1.946 5.99 2.918 5.12 2.406 10.394 4.659 15.718 6.707l6.758 2.406c2.56 0.819 5.171 1.638 7.782 2.406 5.478 1.587 11.059 3.021 16.64 4.198l4.813 0.973c3.43 0.614 6.912 1.126 10.342 1.587 5.632 0.768 11.366 1.331 17.050 1.69l2.458 0.154c1.229 0.051 2.509 0.102 2.662 0.154 3.277 0.102 6.502 0.154 9.779 0.102 24.269-0.256 44.493-3.43 67.584-10.496 19.046-5.837 38.195-14.95 55.654-26.47-35.072-77.875-67.584-156.928-96.614-234.957-5.376-14.49-10.803-29.389-16.23-44.544-20.941 58.47-46.182 116.275-75.059 172.032-3.43 6.605-14.182 7.936-15.36 8.090-6.144 0.666-13.517-0.666-18.842-3.379-4.915-2.509-11.213-6.912-13.414-13.722-1.331-4.198-0.87-8.755 1.382-13.107 38.298-73.933 70.093-152.986 94.413-234.957 2.304-7.731 9.728-12.493 19.866-12.646 11.52-0.256 25.907 5.734 29.338 15.974 37.12 110.95 80.179 221.901 127.898 329.882 51.61-54.477 75.418-135.526 60.774-208.589-9.677-48.179-33.536-97.536-67.277-138.906-16.23-19.866-36.096-37.734-57.549-51.61-12.032-7.782-20.224-12.032-32.768-16.947z" />
<glyph unicode="&#xe903;" glyph-name="CHECKBOLD" d="M712.038 739.533c-1.024 3.84-3.635 6.963-7.578 8.96-6.195 3.174-15.923 3.635-26.061 1.28-5.12-1.178-17.562-4.966-22.17-13.978-79.462-155.238-149.76-316.877-208.947-480.666-21.914 60.416-47.821 119.808-77.21 176.691-7.424 14.387-30.925 11.981-45.056 4.71-5.376-2.765-9.216-6.093-11.469-9.83-2.611-4.403-2.816-9.216-0.563-13.568 41.421-80.282 75.674-164.864 101.786-251.392l-2.918-8.755 5.632 1.126c3.226-5.837 9.574-9.165 17.869-9.318h0.563c13.773 0 33.382 9.114 37.888 20.531l2.662 0.666-1.126 3.789c64.41 191.437 143.514 379.136 235.059 557.978 2.099 4.045 2.662 8.141 1.69 11.776z" />
<glyph unicode="&#xe904;" glyph-name="COMMUNICATION3" d="M451.482 499.046c-30.669-23.654-49.562-62.003-35.994-101.171 16.947-48.845 68.864-67.994 116.685-56.832 50.074 11.725 82.995 56.064 83.866 106.906 0.205 12.032-1.178 23.347-6.554 34.202s-11.725 20.122-9.267 32.768c1.946 10.086 7.373 19.098 12.134 28.058 5.325 10.035 14.797 24.218 13.261 35.994-2.048 15.206-19.456 17.613-32.051 17.459-16.691-0.154-33.382-0.614-50.022-1.331-32.205-1.331-64.41-3.686-96.461-6.861-4.096 0.307-8.192 0.512-12.288 0.87-7.117 0.666-14.746-0.614-21.197-3.738-5.069-2.458-11.571-7.168-13.824-12.646-1.946-4.762-2.56-10.445 1.024-14.746l50.688-58.982zM506.931 410.778c0.256-0.973 0.307-1.997 0.461-2.97-0.256 0.87-0.307 1.946-0.461 2.97zM518.861 372.224s0.41 0.154 0.614 0.205c0.512-0.051 1.024-0.154 1.536-0.205-0.666 0-1.434 0-2.15 0zM809.062 638.771c-0.973 18.483-1.946 36.966-2.867 55.45-0.768 14.643 0.41 31.642-6.861 44.902-14.899 27.238-54.63 19.2-79.923 18.227-76.493-2.918-152.934-5.837-229.427-8.755-87.194-3.328-174.336-6.656-261.53-9.984-10.803-0.41-30.003-3.379-35.482-14.541-3.072-6.195-0.87-10.547 3.43-13.005-1.587-1.638-2.509-3.43-2.509-5.325 4.147-180.173 3.123-360.448-3.072-540.57-0.051-1.894 3.994-2.765 9.83-2.714-1.331-1.28-2.458-2.662-3.226-4.25-5.478-11.11 4.71-14.746 14.438-15.309 196.915-11.213 394.394-7.014 590.746 11.93 10.598 1.024 31.334 7.987 30.618 21.709-8.038 154.061-16.077 308.122-24.115 462.182zM239.718 172.442c2.867 2.099 4.71 4.454 4.813 7.168 6.042 176.845 7.066 353.792 3.226 530.688 78.285 2.97 156.621 5.99 234.906 8.96 45.875 1.741 91.75 3.533 137.677 5.274 24.474 0.922 48.947 1.894 73.421 2.816 18.432 0.717 49.664 9.83 55.757-13.107 5.171-19.405 3.379-42.189 4.403-62.157 1.229-23.091 2.406-46.234 3.635-69.325 0.154-2.918 0.307-5.837 0.461-8.755-2.56 22.067-5.325 44.134-8.653 66.048-3.584 23.706-11.366 38.963-37.222 41.626-33.792 3.482-69.939 0.154-103.936-0.563-33.382-0.666-66.765-1.792-100.096-3.328-69.734-3.277-139.366-8.653-208.794-15.821-10.598-1.075-28.672-7.578-30.003-20.326-0.41-3.789 0.819-6.656 2.816-8.909-7.168-3.686-12.39-9.165-12.442-15.77-0.563-62.31-0.666-124.621-0.358-186.931 0.154-28.877 0.41-57.754 0.717-86.63 0.307-27.238-3.533-58.47 2.611-85.146 4.659-20.070 20.326-30.003 39.68-33.331 29.594-5.069 62.054-1.434 92.058-1.485 61.133 0 122.214 0 183.347-0.102 29.030 0 58.061 0 87.091 0 26.522 0 59.802-5.325 84.89 5.478 15.77 6.758 22.17 17.408 24.73 30.31 1.331-25.958 2.714-51.968 4.045-77.926-179.149-15.77-359.117-18.637-538.726-8.704zM314.061 357.683c-0.307 28.877-0.512 57.754-0.666 86.63-0.256 59.29-0.102 118.528 0.41 177.818 0 2.406-0.563 4.352-1.382 6.144 96.41 9.472 193.075 15.462 289.946 17.408 25.037 0.512 50.074 0.819 75.11 0.666 13.824-0.102 14.899 1.536 16.845-11.776 2.202-14.848 4.301-29.696 6.246-44.544 6.605-50.534 11.725-101.274 15.309-152.115 3.686-52.275 5.734-104.704 6.144-157.133 0-5.12-1.126-13.414 0.102-17.971 0.512-1.997 0-3.942-0.41-5.171-8.755-1.485-26.624 1.28-32.717 1.28-27.494 0-54.989 0-82.483 0-50.432 0-100.864 0-151.245 0.051-25.958 0-51.968 0-77.926 0-17.971 0-54.528-8.243-60.877 13.568-3.482 11.981-1.536 27.085-1.741 39.424-0.205 15.206-0.41 30.413-0.563 45.568z" />
<glyph unicode="&#xe905;" glyph-name="STAR" d="M821.504 522.394c-3.226 6.81-13.363 8.243-19.405 7.526-37.734-4.352-74.957-6.707-110.643-7.014-17.766-0.154-35.686 0.102-53.402 0.819-2.56 0.102-5.171 0.154-7.834 0.205-6.656 0.154-13.517 0.307-19.814 1.28-10.598 1.587-12.186 3.84-14.694 13.568-19.763 75.571-43.162 140.954-71.578 199.782-2.765 5.734-8.909 8.755-16.691 8.499-10.138-0.461-23.245-6.81-26.573-15.565-25.088-66.458-46.797-135.526-64.614-205.414-26.675-0.563-53.709-1.434-79.923-2.253-34.509-1.075-70.195-2.202-105.318-2.714-2.867 0-25.446-4.813-28.979-14.899-0.614-1.792-1.485-6.349 3.533-10.445l140.698-114.995c1.229-1.024 2.56-1.997 3.84-2.97 4.915-3.738 9.523-7.219 10.598-12.134 1.178-5.171-1.126-10.957-3.533-17.101-0.717-1.741-1.382-3.533-1.997-5.222-2.765-7.885-5.427-15.77-7.987-23.706-5.12-15.821-9.984-31.949-14.387-47.923-8.858-32-16.486-65.741-22.784-100.25-1.126-6.246 2.048-9.523 4.045-10.957 8.755-6.144 27.802 0.768 30.976 2.662 33.946 19.866 67.789 41.114 100.506 61.645 20.634 12.954 41.933 26.317 63.078 39.27l3.994-2.97c49.613-36.966 100.864-75.162 153.6-109.824 2.611-1.69 6.246-2.458 10.24-2.458 7.322 0 15.821 2.509 21.146 6.144 7.526 5.222 7.526 11.264 6.81 14.387-7.475 33.894-13.312 67.891-19.558 105.626-2.765 16.742-6.605 33.485-10.24 49.613-3.021 13.363-6.144 27.136-8.704 40.755-2.253 12.134 10.547 21.094 22.886 29.747 3.43 2.406 6.656 4.659 9.523 7.014 14.131 11.469 27.699 22.886 40.346 33.843 23.45 20.378 47.77 42.854 78.797 72.858 6.144 5.99 5.12 11.008 3.994 13.466zM649.523 403.814c-12.032-8.858-27.034-19.917-28.621-36.659-1.024-10.957 2.509-22.63 5.99-33.894 1.485-4.915 2.918-9.574 3.84-13.824 3.584-16.384 6.451-32.768 8.806-46.694l1.178-7.117c3.123-18.483 6.349-37.478 9.779-56.32-34.406 24.218-68.608 49.715-101.734 74.394l-15.974 11.93c-9.165 6.81-22.63 4.25-31.898-1.28-27.853-16.691-55.808-34.202-82.842-51.2-18.739-11.776-37.99-23.859-57.242-35.635 5.325 25.6 10.598 47.616 16.435 68.403 4.915 17.613 10.342 35.328 16.128 52.685 1.075 3.174 2.56 6.758 4.147 10.547 5.069 12.237 10.803 26.112 7.731 38.502-3.174 12.544-15.411 21.35-26.214 29.133-2.918 2.099-5.632 4.045-7.987 5.99l-98.048 80.128c16.486 0.461 32.922 0.973 49.408 1.485 34.56 1.075 70.246 2.202 105.37 2.714 3.533 0 21.299 0.87 26.829 12.032 0.768 1.229 1.28 2.406 1.587 3.584 13.21 53.606 29.184 107.981 47.565 161.792 8.55-20.378 15.974-39.834 22.63-59.187 6.349-18.534 12.237-37.581 17.51-56.73 1.075-3.942 1.997-8.55 2.918-13.466 2.509-13.21 5.376-28.211 13.978-37.888 10.496-11.878 29.030-12.134 43.93-12.288 3.021 0 5.888-0.051 8.499-0.205 20.634-1.075 41.574-1.536 62.413-1.382 26.47 0.154 53.76 1.382 81.357 3.584-16.589-15.718-36.557-34.202-57.293-52.019-13.312-11.469-27.341-23.091-42.752-35.533-2.253-1.843-4.762-3.686-7.373-5.581z" />
<glyph unicode="&#xe906;" glyph-name="STARS" d="M596.326 403.558c8.141-0.461 17.101 1.843 23.398 5.837 5.325 3.379 7.782 6.963 7.27 10.701-0.256 1.741-1.434 4.915-6.4 6.349-67.072 19.456-120.525 49.152-158.874 88.269-37.734 38.502-60.416 86.938-63.898 136.243l-0.205 24.832c0 2.202-1.075 7.373-10.752 7.578-8.55 0.205-29.747-3.891-30.464-15.616-0.512-8.243-0.41-16.794 0.154-25.19l0.563-76.237c-1.536-1.843-2.355-3.891-2.458-6.042-1.741-32.41-21.606-64.256-53.146-85.248-32.205-21.402-71.834-28.16-110.182-34.714l-5.171-0.87c-3.891-0.666-22.579-7.219-21.709-16.077 0.666-6.963 9.677-6.861 13.312-6.861 80.486 1.536 131.482-18.637 160.41-63.386 28.774-44.493 33.997-98.867 37.53-160.205 0.205-2.202 1.741-7.373 11.93-7.373 0.819 0 1.69 0 2.611 0.102 10.598 0.768 27.238 5.837 26.624 16.333l-0.614 9.933c-1.792 53.146 19.61 107.008 57.242 143.974 33.587 33.024 77.158 49.869 122.675 47.667zM545.536 420.147c-39.526-9.677-76.339-29.082-104.397-55.091-15.77-14.643-29.133-31.846-39.731-51.149-7.322 25.088-17.562 45.978-31.13 63.795-23.654 31.027-58.522 50.022-106.342 58.010 71.885 22.323 113.664 56.525 127.283 104.243 9.728-15.514 21.146-30.003 34.099-43.162 30.771-31.386 71.219-57.139 120.269-76.595zM807.68 628.48c-13.107 0.154-24.013 0-33.024-0.614-53.094 5.632-97.536 44.339-105.574 91.546 0.205 9.062-0.102 18.842-0.922 28.621l0.154 1.741c0.205 1.536 0 3.021-0.563 4.403-0.41 4.813-0.87 9.574-1.382 14.234-0.358 3.226-2.355 5.734-5.683 7.117-2.918 1.229-6.707 1.587-11.315 1.075-5.632-0.614-11.571-2.406-15.872-4.915-7.475-4.301-8.602-9.267-8.243-12.698 0.614-5.837 1.229-11.827 1.741-17.050-0.819-10.035-0.41-20.326 1.178-29.338-0.41-27.75-6.451-47.821-19.046-63.13-11.213-13.619-27.29-21.402-50.688-24.422-18.278 2.509-36.71 1.843-54.733-1.843-6.246-1.28-17.869-3.635-20.736-11.93-1.485-4.25-0.102-7.168 0.87-8.499 2.765-3.994 8.090-4.608 12.39-4.71 12.646-0.256 29.338-0.358 46.49 1.024 47.616-8.499 87.040-49.357 96-99.533-0.768-12.8-0.666-26.778 0.205-43.93 0.102-1.894 1.178-8.090 11.11-8.653 0.41 0 0.87 0 1.331 0 9.165 0 27.034 5.018 28.621 14.541 2.509 15.36 2.56 31.078 0.051 46.746 1.638 23.706 6.758 42.803 15.616 58.47 12.339 21.76 32.102 32.666 63.642 35.43 13.107-0.973 26.624-0.563 40.192 1.178 6.707 0.87 22.272 8.397 21.76 17.152-0.205 3.635-2.714 7.987-13.568 8.090zM707.891 613.99c-16.23-7.066-29.389-16.691-40.038-29.338-4.403-5.222-8.243-10.854-11.674-17.050-5.786 8.243-12.39 15.718-19.712 22.272-10.086 9.062-21.555 16.589-34.15 22.426 12.544 5.274 23.296 11.93 32.666 20.326 7.219 6.451 13.312 13.875 18.278 22.221 6.298-8.141 13.568-15.411 21.555-21.709 9.882-7.782 20.992-14.234 33.075-19.2zM674.202 213.555c-5.786 0.102-11.315 0-15.872-0.307-22.835 2.56-41.779 20.224-45.005 41.523 0 3.789-0.102 7.731-0.358 11.366v1.024c0 0.256 0 0.563 0.051 0.768 0.102 0.973 0 1.894-0.41 2.765-0.154 1.894-0.358 3.789-0.563 5.632-0.256 2.304-1.69 4.198-4.045 5.222-6.81 3.021-25.856-1.229-32.666-6.144-4.352-3.174-4.659-6.656-4.454-8.448 0.256-2.253 0.461-4.557 0.666-6.707l0.205-1.434c-0.41-4.864-0.205-9.574 0.461-13.158-0.154-11.11-2.304-19.405-6.81-26.010-2.458-3.635-6.144-6.758-8.909-7.526-9.523 0.973-19.507 0.41-29.696-1.69l-0.614-0.102c-5.734-1.178-14.387-2.918-19.098-7.936-3.174-3.379-2.867-6.349-2.099-8.192 1.894-4.506 7.578-4.608 9.472-4.659 8.141-0.154 15.462 0 22.374 0.512 10.086-2.253 20.275-8.346 27.392-16.282 6.707-7.475 11.213-16.947 13.005-27.392-0.358-6.093-0.358-12.698 0-20.685 0.102-1.843 1.075-6.093 8.499-6.502 0.358 0 0.717 0 1.126 0 6.195 0 29.747 3.584 31.488 14.285 1.075 6.707 1.126 13.824 0 21.043 0.666 9.933 2.662 18.022 6.093 24.678 3.328 6.554 7.117 10.957 10.342 12.083 0.205 0.102 0.461 0.154 0.717 0.205 7.219-0.563 14.643-0.41 22.067 0.512 9.779 1.229 16.998 3.635 22.067 7.322 4.659 3.43 4.762 6.758 4.045 8.96-0.768 2.355-3.021 5.171-9.677 5.222zM595.814 195.994c-3.123 2.714-6.554 5.12-10.24 7.168 2.662 1.536 5.222 3.174 7.578 4.966 0.768-0.666 1.587-1.331 2.406-1.946 3.123-2.406 6.502-4.608 10.189-6.451-2.765-1.741-5.376-3.635-7.782-5.683-0.717 0.666-1.434 1.331-2.15 1.946z" />
<glyph unicode="&#xe907;" glyph-name="ETOILE3" d="M825.805 472.678c-25.19 0.358-51.2 0.41-77.107-1.229-0.41 0-0.717 0.102-0.87 0.102-4.096 0.563-8.192 1.178-12.288 1.894-7.475 1.331-14.899 2.867-22.221 4.762-3.328 0.87-6.656 1.741-9.984 2.714-1.997 0.563-3.942 1.178-5.939 1.792-0.563 0.154-0.973 0.307-1.178 0.358-0.256 0.102-0.614 0.205-1.178 0.41-14.541 5.222-28.723 11.264-42.291 18.739-50.125 27.443-90.522 74.701-109.261 130.253-3.584 10.598-6.298 21.248-8.243 32 0.358 19.661-0.512 39.322-2.048 58.931 0.154 1.28 0.205 2.56 0.41 3.84 0.358 2.662-0.154 4.864-1.229 6.605-0.87 9.779-1.843 19.558-2.918 29.286-0.512 4.813-7.987 7.526-11.571 8.346-6.861 1.536-15.565 0.717-22.17-1.178-10.138-2.97-27.034-9.882-25.651-23.040 1.229-11.418 2.406-22.886 3.328-34.355-2.15-20.787-1.28-41.523 2.253-61.798 0-1.434 0-2.918-0.102-4.352-0.614-16.691-2.304-33.331-5.581-49.715-1.638-8.141-3.635-16.23-6.144-24.115-1.126-3.635-2.406-7.219-3.738-10.752-0.768-2.048-1.587-4.096-2.458-6.144-0.256-0.563-1.485-3.328-1.741-3.84-3.533-7.27-7.475-14.285-11.981-20.941-2.15-3.174-4.403-6.298-6.81-9.318-1.178-1.536-2.458-3.021-3.686-4.506-0.051-0.051-0.205-0.256-0.41-0.461-0.461-0.512-1.229-1.382-1.382-1.536-5.376-5.734-11.213-11.059-17.408-15.974-0.768-0.614-5.427-3.84-2.304-1.843 3.174 2.048-1.638-1.075-2.458-1.638-3.482-2.355-7.014-4.557-10.598-6.656-1.536-0.922-3.123-1.792-4.71-2.611-0.051 0-0.154-0.051-0.205-0.102-3.635-1.69-7.27-3.43-10.957-4.966-3.328-1.382-6.707-2.714-10.086-3.942-1.741-0.563-3.533-1.126-5.274-1.69-7.68-2.304-15.462-4.25-23.296-5.939-0.205 0-0.461-0.102-0.666-0.154-1.382-0.256-2.765-0.512-4.198-0.768-4.352-0.768-8.704-1.434-13.056-1.997-2.714-0.358-5.478-0.666-8.192-0.973-37.325 5.069-75.162 3.123-112.128-4.966-8.653-1.894-23.552-8.653-25.651-18.739-2.048-9.984 10.803-13.261 18.227-13.414 32.256-0.666 65.587-0.768 98.509 2.099 7.578-1.434 15.053-3.123 22.477-5.222 3.43-0.973 6.861-1.997 10.24-3.072 0.973-0.307 2.97-1.024 3.226-1.075 2.509-0.87 4.966-1.792 7.424-2.765 15.411-5.99 30.259-13.363 44.339-22.118 13.005-8.090 24.474-16.845 36.864-28.57 11.52-10.906 22.016-22.938 31.283-35.789 18.79-26.010 32.256-55.706 40.397-87.501 1.741-6.758 3.123-13.517 4.301-20.326-2.099-30.566-1.587-61.338 0.102-91.853 0.256-4.659 8.243-7.731 11.571-8.346 6.042-1.178 12.134-0.768 18.125 0.41 9.779 1.894 27.597 7.782 29.645 19.558 5.53 30.976 5.427 62.413 0.307 92.979 0.102 1.075 0.154 2.15 0.256 3.226 2.611 30.72 8.038 61.491 18.893 90.47 1.229 3.328 2.56 6.605 3.942 9.882 0.563 1.331 1.178 2.662 1.741 3.994 0.154 0.307 1.434 2.97 1.741 3.584 3.277 6.554 6.861 12.902 10.803 19.046 4.096 6.349 8.602 12.493 13.466 18.278 1.229 1.485 3.482 3.789 0.819 0.973 1.229 1.28 2.406 2.611 3.635 3.84 2.662 2.765 5.478 5.427 8.346 7.987 2.662 2.406 5.427 4.71 8.243 6.963 0.102 0.102 0.358 0.307 0.614 0.563 0.102 0.051 0.154 0.102 0.256 0.154 1.946 1.331 3.891 2.714 5.888 3.994 3.379 2.202 6.81 4.301 10.342 6.246 0.461 0.256 0.973 0.512 1.434 0.768 1.792 0.717 3.584 1.792 5.325 2.56 3.942 1.792 7.987 3.482 12.032 5.018 0.614 0.256 1.229 0.461 1.894 0.717 1.536 0.512 3.123 1.024 4.659 1.485 3.891 1.178 7.782 2.253 11.674 3.226 1.946 0.512 3.942 0.973 5.939 1.382 0.768 0.154 1.587 0.358 2.355 0.512 9.062 1.382 18.022 2.97 27.136 3.942 2.918 0.307 5.786 0.512 8.704 0.768 27.546-2.56 55.398-1.946 82.739 1.843 10.854 1.536 28.262 6.554 32.666 18.125 4.198 11.008-7.987 15.462-17.203 15.616zM630.272 406.426c0.512 0.461 1.024 0.87 1.229 0.87 0 0-0.666-0.461-1.229-0.87zM592.486 423.834c-28.621-20.634-51.456-47.36-66.406-79.36-1.536-3.226-2.918-6.502-4.301-9.779-2.56 4.352-5.222 8.704-8.090 12.902-30.874 46.387-76.544 80.896-128.051 100.966 10.752 3.635 21.299 7.834 31.59 12.851 34.765 16.947 65.792 41.216 86.118 74.65 3.994 6.554 7.424 13.363 10.598 20.275 3.379-5.018 6.81-9.984 10.547-14.797 32.051-41.472 77.005-70.963 126.208-88.013-20.531-7.117-40.141-16.64-58.214-29.645zM741.018 438.118c0.666 0 1.331 0 1.997 0.102 0.154 0 0.256 0 0.41 0-1.382-0.205-3.021-0.154-2.355-0.102z" />
<glyph unicode="&#xe908;" glyph-name="ETOILE4" d="M814.49 459.622c-1.28 4.864-9.523 6.195-13.312 6.195h-259.738c35.789 30.208 71.526 60.365 107.315 90.573 30.157 25.446 60.314 50.944 90.47 76.39 3.226 2.714 7.219 7.834 5.939 12.544s-7.27 7.168-11.418 7.885c-14.080 2.458-31.027-1.997-41.984-11.264-52.838-44.595-105.882-88.934-158.771-133.427-0.922 35.226-1.843 70.451-2.765 105.677-1.024 40.090-2.099 80.179-3.123 120.269-0.102 4.045-8.653 5.53-10.854 5.786-6.912 0.87-15.258-0.358-21.862-2.253-8.602-2.458-26.88-7.885-26.573-19.456 1.741-67.686 3.533-135.373 5.274-203.059-19.866 20.634-39.629 41.37-59.341 62.157-25.702 27.187-51.302 54.579-76.698 82.022-9.984 10.752-27.75 10.957-40.294 4.403-9.114-4.762-24.474-19.251-14.029-30.515 52.326-56.525 105.267-112.384 158.822-167.731h-194.048c-17.613 0-37.888-3.328-52.48-14.080-3.43-2.56-9.83-6.81-8.448-11.981 1.28-4.864 9.523-6.144 13.312-6.144h244.429c-24.525-20.787-48.947-41.677-73.318-62.618-28.826-24.883-56.678-50.893-81.408-79.923-9.165-10.752 7.782-16.947 15.923-16.896 14.285 0 29.747 4.915 39.219 16.077 19.098 22.426 42.496 44.39 66.56 65.382 21.248 18.534 42.906 36.659 64.512 54.835 1.024-39.731 2.048-79.462 3.123-119.142 1.024-40.090 2.099-80.179 3.123-120.269 0.102-4.045 8.653-5.53 10.854-5.786 6.912-0.87 15.258 0.358 21.862 2.253 8.602 2.458 26.88 7.885 26.573 19.456-1.587 60.57-3.174 121.139-4.71 181.709 7.014-7.066 13.926-14.182 20.941-21.197 26.419-26.522 52.992-52.89 79.718-79.104 10.547-10.342 27.29-11.213 40.294-4.403 5.99 3.123 12.595 7.578 15.258 14.080 1.997 4.966 3.123 12.186-1.178 16.435-46.797 45.978-93.184 92.365-139.11 139.162h201.062c17.613 0 37.888 3.277 52.48 14.080 3.43 2.56 9.83 6.81 8.448 11.981z" />
<glyph unicode="&#xe909;" glyph-name="ETOILE5" d="M647.885 433.050c-65.331 5.888-132.403 10.24-199.526 12.954 36.301 35.072 71.373 70.042 104.397 104.192 3.942 4.045 3.174 7.475 2.406 9.165-0.666 1.434-2.662 5.734-14.95 4.813-3.277-0.256-19.968-1.894-27.904-10.138-24.32-25.139-51.149-52.019-81.715-81.971 0 79.411-0.461 151.398-1.485 219.75-0.102 5.274-2.662 9.626-7.322 12.186-8.602 4.813-22.374 2.509-30.669-2.458-5.99-3.584-9.267-8.499-9.165-13.875 0.87-57.856 1.382-120.678 1.485-191.693-20.070 20.89-40.038 38.246-60.723 52.838-6.093 4.301-15.667 3.942-28.57-0.973-2.406-0.922-14.387-5.837-15.309-13.005-0.358-2.816 0.922-5.478 3.482-7.27 28.826-20.378 55.757-45.67 84.122-79.155-56.064 1.126-112.026 1.126-166.502 0-9.37-0.205-17.408-4.813-21.555-12.339-3.226-5.888-3.328-12.442-0.256-17.51 1.997-3.277 7.014-8.653 19.046-8.499 55.040 1.126 111.77 1.075 168.858-0.205-35.379-33.28-68.557-63.59-101.171-92.416-4.301-3.84-3.738-7.322-2.97-9.062 2.253-5.376 10.547-5.581 15.258-5.222 4.25 0.307 18.688 1.997 27.648 9.882 24.218 21.402 49.357 44.237 78.541 71.322-0.563-84.787-1.843-168.755-3.84-249.805-0.102-5.12 2.202-9.421 6.554-12.083 3.43-2.099 7.68-2.97 12.083-2.97 6.4 0 13.158 1.843 18.125 4.557 6.554 3.584 10.24 8.602 10.394 14.182 1.792 71.885 2.97 146.022 3.584 226.253 2.765-3.891 5.53-7.731 8.243-11.622 16.077-22.682 32.717-46.080 49.92-68.25 6.963-9.011 30.106-2.048 39.014 4.864 6.758 5.222 6.298 10.803 3.584 14.285-17.050 21.965-33.587 45.312-49.613 67.84-8.243 11.571-16.691 23.501-25.19 35.226 60.57-2.714 120.576-6.707 178.432-11.93 11.213-0.973 24.781 3.738 29.082 14.694 1.997 5.018 1.587 10.24-1.178 14.694-2.97 4.864-8.448 8.090-14.592 8.602zM778.086 673.894h-83.558c-0.102 3.942-0.205 7.936-0.307 11.878 19.61 16.538 39.219 33.126 58.829 49.664 5.325 4.506 4.762 9.114-2.662 10.035-7.936 0.973-19.712-1.638-25.958-6.963-10.291-8.704-20.582-17.357-30.874-26.061-0.41 15.77-0.819 31.539-1.229 47.309-0.205 8.96-8.806 12.032-16.794 11.418-6.605-0.512-20.582-5.683-20.326-14.49 0.41-15.309 0.819-30.618 1.178-45.926-9.216 9.728-18.534 19.354-27.648 29.184-6.246 6.758-17.101 6.246-24.883 2.509-5.683-2.714-15.104-11.725-8.806-18.534 15.616-16.845 31.488-33.434 47.36-49.971h-46.899c-8.602 0-18.637-2.406-25.958-6.963-5.53-3.43-5.478-6.963 1.843-6.963h59.546c-14.285-11.878-28.365-24.064-40.397-38.042-5.478-6.349 4.762-8.090 9.165-7.936 7.885 0.256 18.995 2.97 24.422 9.267 10.086 11.725 21.709 22.118 33.587 32.102 0.717-26.419 1.382-52.89 2.048-79.309 0.256-8.96 8.858-12.032 16.794-11.418 6.605 0.512 20.582 5.683 20.326 14.49-0.358 13.466-0.717 26.88-1.075 40.346 5.376-5.325 10.598-10.803 16.026-16.128 6.605-6.502 16.794-6.4 24.883-2.509 5.325 2.56 15.462 11.981 8.806 18.534-13.619 13.363-26.931 26.982-40.294 40.55h48.64c8.55 0 18.637 2.406 25.958 6.963 5.53 3.43 5.478 6.963-1.843 6.963z" />
<glyph unicode="&#xe90a;" glyph-name="FERMER" d="M735.795 239.155c-63.437 66.202-126.925 132.403-190.362 198.656 67.277 64.461 134.554 128.922 201.83 193.434 26.368 25.293-37.939 70.451-59.955 49.357-65.075-62.362-130.15-124.723-195.226-187.085-57.242 59.75-114.483 119.45-171.725 179.2-12.032 12.544-33.126 25.907-51.354 19.712-16.845-5.734-14.746-24.422-4.096-35.584 63.437-66.202 126.925-132.403 190.362-198.656-67.174-64.358-134.298-128.717-201.472-193.075-26.368-25.293 37.939-70.451 59.955-49.357 64.973 62.259 129.894 124.467 194.867 186.726 57.242-59.75 114.483-119.45 171.725-179.2 12.032-12.544 33.126-25.907 51.354-19.712 16.845 5.734 14.746 24.422 4.096 35.584z" />
<glyph unicode="&#xe90b;" glyph-name="FLECHE1" d="M525.926 607.846c0.666-12.595 5.12-26.163 13.056-36.096 28.262-35.123 61.235-66.048 97.638-92.262h-338.79c-26.522 0-17.254-54.477 4.915-54.477h353.638c-36.71-31.232-71.526-64.666-103.578-100.864-9.779-11.008 10.803-59.648 18.637-50.79 49.664 56.013 105.216 106.496 165.939 150.272 11.725 8.448 0.154 48.589-11.827 53.658-74.547 31.437-139.469 80.435-190.208 143.462-7.936 9.882-9.728-8.653-9.523-12.902z" />
<glyph unicode="&#xe90c;" glyph-name="FLECHE2" horiz-adv-x="1412" d="M1135.155 415.334c-35.226 86.682-116.173 143.974-151.091 230.195-12.442 30.771-41.677-11.264-33.434-31.59 24.986-61.696 73.062-108.493 111.411-161.382-87.859 26.573-182.323 28.006-271.309 3.84-5.734-1.587-11.725-3.226-17.766-4.966-6.093 22.733-21.35 40.704-47.155 48.742-45.978 14.234-101.939 10.752-149.555 10.547-105.523-0.563-210.637-14.182-312.986-39.578-13.773-3.43-21.146-55.808-9.267-52.838 90.778 22.528 183.501 35.635 276.992 38.349 39.731 1.126 79.565 0.461 119.245-2.048 25.498-1.587 59.136-1.485 81.51-17.101-22.477-9.062-43.725-20.787-59.29-37.12-20.685-21.709-42.291-71.834-19.098-98.714 21.299-24.73 60.877-4.557 79.002 13.773 21.965 22.221 36.147 54.426 41.472 85.965 34.253 9.933 69.581 16.077 105.216 18.074 58.061 3.277 116.070-3.994 171.366-21.197-64.154-28.979-124.262-65.587-179.917-109.722-17.254-13.67-12.8-64.666 13.158-44.083 69.581 55.142 148.531 98.714 232.294 128.154 15.155 5.325 25.549 27.29 19.251 42.803zM663.757 346.112c-0.205-0.358-0.358-0.717-0.563-1.126-0.154 0.102 0.102 0.512 0.563 1.126zM723.251 353.843c-11.11-6.758-26.061-12.544-39.117-8.755-5.069 1.434-9.267 7.168-13.21 8.755 1.331 1.331 2.406 2.355 2.918 2.816 20.634 18.483 51.046 29.645 78.797 38.349-1.946-16.435-13.67-31.59-29.389-41.114z" />
<glyph unicode="&#xe90d;" glyph-name="FLECHE3" horiz-adv-x="2222" d="M1987.84 464.026c-0.358 17.766-18.227 22.784-32.154 27.75-17.613 6.298-34.918 13.517-51.763 21.555-33.638 16.077-65.178 36.198-94.72 58.88-10.496 8.038-28.826 5.222-39.629-0.614-9.165-4.966-17.050-15.718-6.451-23.808 27.802-21.299 57.293-39.936 88.474-55.91 15.206-7.782 30.669-15.002 46.541-21.402 6.707-2.714 13.466-5.171 20.275-7.629-151.501-49.562-309.094-81.101-468.736-84.685-118.477-2.662-281.344 0.614-360.397 101.171 55.040 29.85 103.68 69.12 138.65 122.010 19.251 29.133 42.24 66.765 15.411 98.458-22.067 26.010-59.597 35.84-92.467 34.611-65.946-2.458-135.68-46.131-153.805-112.128-13.261-48.282-0.512-97.485 25.549-138.752-60.928-27.648-128.205-43.93-192-55.091-185.395-32.563-375.398-29.85-560.179 5.325-21.709 4.147-61.030-23.245-24.32-30.208 192.666-36.659 391.629-38.707 584.909-5.376 69.12 11.93 143.309 29.44 211.302 58.522 9.267-10.957 19.456-20.992 30.259-30.003 66.765-55.45 158.515-71.475 242.586-76.851 203.622-13.056 407.654 19.046 601.702 80.179-4.147-5.99-8.397-11.93-11.776-17.92-8.346-14.746-16.026-29.901-22.938-45.363-14.643-32.717-25.6-66.816-33.126-101.888-5.171-24.166 51.456-20.429 55.91 0.461 7.834 36.71 19.507 72.448 35.226 106.547 7.885 17.101 16.896 33.638 26.829 49.613 7.834 12.646 21.197 26.829 20.89 42.65zM1060.096 530.227c-23.142 58.778-11.213 129.126 46.848 162.304 23.45 13.363 50.278 15.104 72.96-0.922 37.99-26.829 7.987-69.069-13.005-97.229-26.368-35.43-59.546-63.334-96.512-85.709-3.686 6.912-7.27 13.926-10.291 21.606z" />
<glyph unicode="&#xe90e;" glyph-name="FLECHE4" horiz-adv-x="1817" d="M1544.96 473.907c10.65 9.626-31.13 52.378-43.264 41.37-0.205-0.205-0.41-0.358-0.666-0.563-54.733 25.344-110.438 59.187-154.982 94.976-9.165 7.373-25.395 16.742-35.84 5.837-9.421-9.882-1.587-28.262 7.424-35.533 35.635-28.621 73.421-54.016 112.845-76.698-300.134-34.253-603.085-41.267-904.397-19.712-91.238 6.502-182.272 15.667-272.998 27.238-13.466 1.741-8.448-13.67-4.608-20.378 6.298-10.854 19.814-23.245 32.87-24.934 322.816-41.114 649.318-50.33 973.926-27.29 58.214 4.147 116.326 9.677 174.336 15.872-37.939-30.464-77.107-59.443-117.709-86.426-10.138-6.758 28.365-51.251 43.264-41.37 66.867 44.39 130.304 93.645 189.798 147.507z" />
<glyph unicode="&#xe90f;" glyph-name="MATIERE1" d="M588.39 554.598c-19.763 5.325-39.782 6.554-59.341 4.557-0.256 0.461-0.358 0.922-0.717 1.382-7.066 9.626-27.238 6.042-35.891 1.792-32.87-16.23-63.232-37.12-88.986-63.386-23.040-23.501-47.309-52.685-55.706-85.248-3.379-13.158-3.789-27.853 2.662-40.090 8.346-15.718 24.832-21.35 41.472-24.166 40.397-6.861 81.152-14.797 121.958-18.893 67.738-6.81 147.456 16.077 162.56 91.494 12.493 62.413-28.518 116.582-88.013 132.557zM513.024 396.39c8.346 0.512 16.896 2.099 25.139 4.506 8.499-0.205 17.050-0.41 25.6-0.307 4.352 0.051 9.626 1.536 14.541 3.84-1.997-4.454-4.864-9.114-9.421-10.854-11.264-4.301-28.723-1.126-40.397-0.563-13.619 0.666-27.136 2.048-40.653 3.789 8.346-0.717 16.691-0.973 25.19-0.461zM485.069 397.107c-0.87 0.102-1.741 0.205-2.611 0.358 0.87-0.102 1.741-0.256 2.611-0.358zM490.854 513.024c-3.174-0.717-6.349-1.536-9.472-2.458 3.277 2.202 6.656 4.096 10.138 5.837l-0.666-3.379zM579.379 513.331c9.626-5.478 17.766-12.544 24.371-20.634-11.11 8.090-23.91 14.182-36.762 18.074-7.885 2.355-16.077 3.942-24.371 4.966 0.614 3.174 1.28 6.298 1.894 9.472 11.776-1.638 23.552-5.376 34.867-11.827z" />
<glyph unicode="&#xe910;" glyph-name="BURGER" d="M775.27 490.291c-177.766 0-355.533 0-533.299 0-31.386 0-19.2-75.366 6.656-75.366 177.766 0 355.533 0 533.299 0 31.386 0 19.2 75.366-6.656 75.366v0zM780.698 640.051c-181.709-1.536-363.418 4.864-544.717 19.251-33.894 2.714-21.658-80.026 7.219-82.33 181.299-14.387 362.957-20.787 544.717-19.251 34.509 0.307 21.197 82.534-7.219 82.33v0zM243.302 255.949c181.709 1.536 363.418-4.864 544.717-19.251 33.894-2.714 21.658 80.026-7.219 82.33-181.299 14.387-362.957 20.787-544.717 19.251-34.509-0.307-21.197-82.534 7.219-82.33v0z" />
<glyph unicode="&#xe911;" glyph-name="PEN" d="M691.2 653.21l2.509 3.994c1.69 2.662 2.304 5.171 1.69 7.373-0.256 1.024-0.87 2.304-2.304 3.482v0c1.485 12.339 1.434 24.32-0.102 35.635-1.536 11.418-3.891 23.296-10.24 32.666-5.786 8.55-16.794 12.698-32.41 12.339-2.918-0.051-5.837-0.307-8.755-0.614l-4.659-0.41c-0.307 0-0.768 0-1.28-0.051v0c-0.512 0-0.973 0-1.382 0-0.154 0-0.256 0-0.307 0v0s-0.154-0.051-0.205-0.051c0 0-0.051 0-0.102 0-0.922 0-1.843-0.102-2.253-0.154l-1.024 0.205c-0.87 0.154-1.792 0.307-2.662 0.512-2.202 0.563-4.915 0.614-8.243 0.256-2.611 1.69-5.53 2.867-8.346 3.328-11.315 1.894-22.784-3.635-28.672-13.875-80.538-140.032-153.19-286.618-215.962-435.763-8.090-3.533-10.035-8.448-10.24-12.083-2.304-46.080-11.418-91.392-27.085-134.758-1.946-5.325 0.461-8.038 2.048-9.165 1.997-1.434 5.018-1.997 8.55-1.997 10.906 0 26.419 5.53 29.389 7.885 36.198 28.672 75.878 54.374 118.016 76.288 5.171 2.662 8.499 6.963 8.755 11.11 0.102 2.304-0.614 5.632-4.864 8.448-9.933 6.605-27.546-1.946-30.925-3.738-24.781-12.902-49.408-27.494-73.165-43.418 5.53 21.299 9.574 43.264 12.032 65.382 14.541-6.195 28.467-12.749 41.523-19.507 5.837-3.021 14.387-3.072 22.835-0.102 8.090 2.867 14.182 7.731 16.691 13.466 56.986 128.819 124.467 255.539 200.602 376.525 3.84 1.792 13.107 6.707 13.414 11.981 0.051 1.126-0.205 3.277-2.816 4.864zM648.909 677.734c-11.827 6.605-23.859 13.107-35.686 19.302-1.587 0.819-3.277 1.434-5.222 1.843l0.41 0.768c4.198 7.526 8.448 15.002 12.698 22.528 2.304 0.154 4.608 0.358 6.912 0.563 0.666 0.051 2.048 0.154 3.174 0.205 0.461 0 0.973 0.051 1.434 0.102 0 0 0.051 0 0.102 0v0s0.154 0 0.256 0l2.765 0.154 1.024-0.358s0.307-0.102 0.41-0.154c1.382-1.28 2.355-2.253 3.123-3.123 3.738-6.758 5.427-15.002 6.758-22.221 1.126-6.195 1.741-12.749 1.843-19.507zM639.949 640.973c-71.782-113.92-136.602-234.24-192.614-357.632-11.725 5.376-23.757 10.445-35.942 15.104 53.146 125.901 113.562 250.419 179.661 370.227 16.23-8.755 32.666-18.074 48.896-27.648z" />
<glyph unicode="&#xe912;" glyph-name="PEN2" d="M706.355 696.166c-24.064 15.872-49.408 30.157-75.315 42.445-9.062 4.301-22.528 2.458-30.054-4.198-0.41-0.358-0.768-0.768-1.024-1.126-3.226-1.536-5.632-3.482-7.014-5.888-85.555-143.206-169.062-290.611-248.166-438.17-0.87-0.512-1.638-1.024-2.304-1.536-5.939-3.021-7.475-6.963-7.731-9.728-3.43-37.53-10.854-74.752-22.067-110.49-1.178-3.789-0.102-7.424 2.867-9.677 2.406-1.843 6.298-2.765 11.469-2.765 9.062 0 20.173 2.765 22.989 4.557 15.514 9.984 31.078 19.661 46.182 28.723 7.014 4.198 14.131 8.243 21.504 12.39 8.294 4.71 16.896 9.574 25.19 14.643 2.406 1.485 7.168 4.352 8.909 9.165 3.482 1.434 5.837 3.43 7.066 5.888 74.854 150.63 157.286 299.827 244.941 443.443v0c3.84 2.765 7.834 7.424 7.936 12.646 0.051 2.202-0.563 6.4-5.478 9.626zM662.989 679.219c-0.614-0.614-1.126-1.229-1.536-1.946-82.893-135.731-161.69-277.811-234.24-422.246-1.126 0.922-2.253 1.843-3.379 2.765-10.803 8.653-22.272 17.562-35.942 27.853 74.394 138.752 153.6 278.835 235.366 416.41 6.042-3.123 11.469-6.042 16.589-8.909 0.307-0.154 0.666-0.358 1.075-0.563 0.358-0.256 0.666-0.41 0.922-0.563l4.966-2.867c2.867-1.69 5.734-3.43 8.602-5.171 2.56-1.587 5.069-3.174 7.578-4.762zM404.685 225.485c-6.758-3.789-13.414-7.731-20.070-11.622l-1.997-1.178c-1.587 1.946-3.635 3.328-6.195 4.25l-4.25 1.331c-0.768 0.154-1.587 0.307-2.355 0.358 2.15 10.291 4.045 20.48 5.53 30.464 1.894-1.434 3.789-2.918 5.632-4.403 6.451-5.171 12.902-10.394 19.251-15.667 0.819-0.666 1.638-1.331 2.458-1.997 0.666-0.512 1.28-1.024 1.946-1.536z" />
<glyph unicode="&#xe913;" glyph-name="MODIFIER3" d="M780.493 698.010c-19.968 13.158-40.96 25.037-62.413 35.174-7.68 3.635-18.995 2.048-25.344-3.533-0.358-0.307-0.614-0.614-0.819-0.87-2.714-1.28-4.71-2.97-5.939-4.966-70.81-118.528-139.93-240.589-205.466-362.752-0.717-0.41-1.28-0.819-1.843-1.229-5.069-2.56-6.4-5.99-6.605-8.397-2.816-31.078-8.96-61.85-18.227-91.392-1.024-3.328-0.102-6.502 2.56-8.499 2.099-1.587 5.376-2.406 9.779-2.406 7.578 0 16.947 2.355 19.251 3.84 12.902 8.294 25.754 16.282 38.246 23.757 5.786 3.482 11.725 6.81 17.613 10.138l0.461 0.256c6.81 3.84 13.824 7.782 20.582 11.981 1.997 1.229 5.939 3.635 7.475 7.629 2.867 1.229 4.864 2.918 5.888 5.018 62.003 124.774 130.253 248.32 202.803 367.155 3.277 2.355 6.605 6.298 6.707 10.752 0 1.946-0.512 5.581-4.71 8.346zM743.629 683.469c-0.358-0.41-0.666-0.819-0.973-1.28-68.557-112.282-133.734-229.786-193.792-349.235-0.819 0.666-1.587 1.28-2.406 1.946-8.806 7.066-18.227 14.387-29.491 22.835 61.542 114.739 126.976 230.502 194.56 344.166 4.915-2.56 9.318-4.915 13.363-7.168 0.256-0.154 0.563-0.307 0.87-0.461 0.307-0.205 0.563-0.358 0.768-0.461l4.096-2.406c2.406-1.434 4.762-2.816 7.117-4.25 1.946-1.178 3.891-2.406 5.837-3.635zM529.664 307.866c-5.376-3.021-10.701-6.195-16.026-9.318l-1.331-0.768c-1.331 1.485-3.021 2.611-5.12 3.379l-3.584 1.126c-0.512 0.102-1.024 0.205-1.536 0.256 1.69 8.141 3.174 16.179 4.403 24.064 1.382-1.075 2.714-2.099 4.096-3.174 5.376-4.25 10.65-8.602 15.974-12.954l2.048-1.638c0.358-0.307 0.717-0.614 1.126-0.87zM704.768 462.592c-4.762 1.69-11.213 1.741-16.435 0.154-9.677-2.918-19.456-9.984-17.818-21.146 10.957-76.237 14.643-154.419 10.906-232.397l-394.906-15.258c-0.666 0-1.331 0.102-2.048 0.102h-0.256s0 0-0.051 0v0.205c-0.461 1.485-0.461 2.099-0.461 3.226v0.666c-0.102 6.963-0.102 13.978-0.102 20.941v8.653c-0.205 80.333 0.307 161.843 1.587 242.33 0.205 11.469 0.307 22.938 0.461 34.406 0.307 24.627 0.614 50.074 1.382 75.11 0.563 18.022 1.485 35.584 2.765 52.173l0.102 1.536c0.102 1.638 0.256 3.328 0.41 4.966l290.56-6.093c5.018-0.051 21.811 0.563 27.853 13.312 1.946 4.147 1.741 8.499-0.614 12.288-2.714 4.403-7.987 7.27-13.466 7.424l-284.211 5.939c-2.048 0-4.096 0.102-6.144 0.205-9.421 0.358-19.149 0.666-28.621-1.946-13.978-3.891-24.934-13.875-28.621-26.010-2.202-7.219-2.458-15.104-2.765-22.733-0.102-2.406-0.154-4.762-0.307-7.014-1.946-30.464-2.304-61.491-2.714-91.443l-0.205-17.562c-1.178-81.101-2.304-167.424-2.253-252.467 0-10.598 0-21.197 0.051-31.744 0-2.97 0-5.888 0-8.858-0.102-7.782-0.154-15.821 0.461-23.706 1.946-24.013 25.498-27.085 42.598-27.085 3.379 0 6.502 0.102 9.165 0.205l410.061 15.821c8.243 0.307 23.347 6.605 24.064 18.022 5.325 85.606 1.741 172.339-10.547 257.894-0.768 5.222-6.554 8.602-9.882 9.779z" />
<glyph unicode="&#xe914;" glyph-name="TRASH" d="M387.226 510.31c9.523-98.099 19.046-196.25 28.621-294.349 1.024-10.291 50.739-0.87 49.408 13.21-9.523 98.099-19.046 196.25-28.621 294.349-1.024 10.291-50.739 0.87-49.408-13.21zM528.026 532.48c0.205 21.197-49.306 11.213-49.459-5.888-1.024-101.683 4.762-203.264 17.766-304.128 2.253-17.306 51.866-6.042 49.408 13.21-12.646 98.406-18.688 197.53-17.664 296.755zM576.051 529.203v-303.77c0-12.851 49.408-4.352 49.408 13.21v303.77c0 12.851-49.408 4.352-49.408-13.21zM737.69 641.69c-133.274 34.662-264.858 75.418-394.394 122.214-20.634 7.424-57.907-22.221-28.672-32.768 124.723-45.056 251.392-84.429 379.597-118.272-126.362-4.915-252.723-9.882-379.034-14.797-19.046-0.768-30.822-17.766-23.757-26.982-1.741-2.202-2.611-4.659-2.253-7.219 17.306-134.4 34.611-268.8 51.917-403.149-0.102-0.614-0.256-1.229-0.307-1.843-1.178-13.363 12.851-17.203 23.194-17.51 95.027-2.714 190.106-0.563 284.928 6.502 10.342 0.768 23.654 7.014 26.522 17.92 0.512 1.075 0.819 2.253 0.973 3.43 17.203 142.95 34.406 285.901 51.61 428.851 0.563 4.557-1.229 7.782-4.403 9.933 7.782 0.922 15.36 4.198 20.378 10.291 6.81 8.192 5.274 20.429-6.298 23.398zM629.197 184.422c-79.718-5.222-159.539-7.066-239.411-5.376-16.64 129.126-33.229 258.253-49.869 387.379 112.282 4.403 224.563 8.755 336.845 13.158-15.872-131.738-31.693-263.424-47.565-395.162z" />
<glyph unicode="&#xe915;" glyph-name="PRODUCT" d="M651.418 565.965c7.731 14.643 20.378 32.41 22.067 49.254 1.843 18.33-19.61 17.766-32.512 17.715-24.32-0.154-48.64-1.024-72.96-1.997-44.595-1.843-89.139-5.069-133.581-9.216-15.718 0.922-31.437 1.843-47.104 3.277-12.186 1.126-29.082-4.198-35.226-15.616-6.246-11.571 5.427-18.483 15.514-19.405 5.171-0.461 10.342-0.666 15.462-1.075 20.275-31.027 38.502-63.232 54.63-96.614-51.405-31.898-82.893-92.57-59.034-152.73 26.112-65.946 95.539-87.245 160.41-71.424 33.28 8.141 65.126 24.269 86.528 51.661 21.094 27.034 31.027 61.645 32.87 95.59 0.922 17.101-1.075 33.69-8.397 49.306-8.55 18.33-19.302 33.024-16.742 54.323 1.997 16.794 10.291 32.307 18.074 47.053zM606.106 610.97c7.68 0.102 12.032 1.536 13.21-6.502 0.563-3.738-0.973-8.192-2.867-12.442-1.126 0.102-2.15 0.154-2.867 0.154-8.96 0-17.92 0.051-26.88 0.102-10.803 12.749-28.979 16.333-44.8 12.339-4.045-1.024-7.629-2.509-10.957-4.25 1.382 3.021 1.485 5.786 0.666 8.243 24.832 1.126 49.664 2.048 74.547 2.355zM514.816 341.197c-1.997-2.458-6.656-5.99-6.656-5.99-3.226-1.485-3.891-1.946-7.475-0.205-10.854 5.376-13.158 17.408-11.52 29.696 1.741-0.102 3.482-0.205 5.171-0.205 8.090 0 16.077 1.178 23.859 3.123 2.97-8.96 2.714-18.842-3.379-26.419zM428.083 369.715c0.87-0.102 1.69-0.256 2.56-0.307-0.358-1.69-0.922-3.277-1.229-4.966-0.461 1.741-0.922 3.482-1.331 5.274zM530.534 431.514c0.41-0.358 0.614-0.563 0.922-0.819-0.051-0.614-0.102-1.229-0.154-1.843-0.614 0.307-1.229 0.666-1.792 0.973 0.358 0.563 0.717 1.126 1.075 1.69zM589.21 463.462s0 0.051 0 0.102l0.256-0.461s-0.154 0.256-0.256 0.358zM481.894 492.544c0.256 0.102 0.666 0.307 1.126 0.563 0.256-0.614 0.41-1.331 0.717-1.946-15.104-21.35-27.443-44.646-37.12-68.966-3.328-3.482-6.042-7.424-7.885-11.622 0 0-0.102 0-0.154 0-3.994-0.205-8.448-1.331-12.646-3.123 3.482 35.226 22.323 68.506 55.962 85.146zM435.251 352.256c0.051-1.741 0.154-3.482 0.307-5.171-0.973 2.099-1.741 4.25-2.56 6.4 0.717-0.461 1.434-0.87 2.253-1.229zM505.242 287.181c-5.222 1.331-10.291 3.226-15.258 5.427 20.224-1.587 41.267 5.683 57.446 18.534 6.144 1.229 12.39 2.97 17.92 5.888 4.198 2.253 8.397 4.659 10.854 8.909 1.741 3.021 3.482 6.093 5.222 9.114 4.557 4.096 8.55 8.653 12.186 13.466-5.888-15.974-13.978-31.13-25.651-43.366-17.971-18.79-37.632-24.32-62.771-17.971z" />
<glyph unicode="&#xe916;" glyph-name="USER" d="M605.286 466.074c-7.424 7.27-29.747-0.512-37.734-3.43 0 0 0 0-0.051 0 30.259 23.194 49.869 57.6 54.426 97.024 3.328 28.928-1.69 61.696-19.251 85.606-18.637 25.395-48.435 38.042-79.565 37.837-6.81 0-14.029-0.922-20.992-2.662-0.666 0.973-1.843 1.843-4.25 2.509-32.358 8.55-70.502-1.638-98.867-17.92-24.576-14.080-41.882-36.557-50.483-63.437-16.026-50.074-11.827-115.456 32.819-149.555 7.629-5.837 16.026-10.086 24.678-13.722-5.683-2.458-11.059-5.632-15.309-9.882-55.91-56.269-87.347-132.659-88.525-211.763-0.205-14.029 58.317-4.557 58.624 15.718 1.126 73.37 31.795 144.589 83.2 196.659 31.13-2.918 63.795 3.43 91.546 15.053 4.659 1.946 9.011 4.301 13.312 6.656-0.512-1.485-0.41-3.021 1.126-4.557 63.949-62.72 108.595-143.002 128.87-230.195 2.918-12.442 61.747 2.099 58.624 15.718-20.736 89.037-67.021 170.394-132.25 234.342zM439.757 662.835c-0.973-0.922-1.28 0.41 0 0v0zM505.088 451.994s0 0 0 0c0.307 0.154 0.614 0.307 0.768 0.358-0.358-0.205-0.461-0.256-0.717-0.41zM525.824 466.534c-5.683-5.325-13.414-10.752-18.586-13.414-0.256-0.102-1.178-0.563-1.894-0.922-0.154-0.051-0.256-0.102-0.41-0.205v0s-0.205-0.102 0 0c-0.154 0-0.41 0-0.87-0.102-0.768-0.154-1.024-0.205-1.126-0.205-0.973-0.102-1.894-0.205-2.867-0.307-13.978-0.922-32.461 2.816-46.848 9.984-39.936 19.866-55.194 61.542-54.221 104.294 0.563 24.832 5.683 50.227 18.586 71.782 6.093 10.189 13.67 18.125 23.347 24.883 0 0 0 0 0 0 1.946-1.024 6.707-1.126 8.704-1.69 8.038-2.099 17.715-0.41 26.726 2.355 0.973-1.843 3.533-3.174 8.602-3.123 47.462 0.256 74.701-43.827 78.694-86.477 3.635-38.349-9.267-80.23-37.786-106.906z" />
<glyph unicode="&#xe917;" glyph-name="SEARCH" d="M852.634 569.549c-1.638 24.422-5.53 47.821-19.405 68.608-14.182 21.299-34.099 38.246-56.832 49.869-37.888 19.302-83.251 26.317-125.082 18.278-4.557-0.87-23.808-4.71-23.91-11.264-0.102-7.014 11.878-5.018 16.384-4.147 66.406 12.749 149.811-33.382 164.198-101.069 7.936-37.274 8.755-79.309-4.403-115.302-13.824-37.786-38.758-73.37-70.656-98.099-25.907-20.070-62.362-29.286-94.925-30.362-26.163-0.819-60.877 4.506-84.122 17.408-66.765 37.018-110.797 111.616-105.216 188.006 3.277 45.21 26.112 89.088 60.109 118.784 37.837 33.024 95.693 46.592 144.845 42.906 8.755-0.666 21.965 1.997 28.877 7.731 5.632 4.659 6.246 8.499-2.458 9.114-54.63 4.096-110.746-9.728-160.41-31.949-41.472-18.534-75.469-52.224-94.925-93.235-20.122-42.445-22.886-92.621-8.243-137.216 6.4-19.507 16.282-37.427 28.416-53.76-43.52-41.677-67.021-68.045-113.357-114.483-18.842-18.893-37.683-37.734-56.474-56.627-15.514-14.848-31.027-29.645-46.336-44.698-16.026-15.77-39.68-32.922-44.902-56.269-4.301-19.2 12.544-34.458 29.952-38.81 26.573-6.707 45.978 15.821 63.949 31.642 50.176 44.032 99.84 88.678 148.992 133.837 40.243 37.018 56.32 47.565 88.781 81.51 25.242-13.107 52.89-16.23 82.176-19.917 36.966-4.659 78.182 5.786 113.050 17.562 45.261 15.258 81.152 45.773 107.776 85.043 13.824 20.378 24.832 42.957 30.925 66.867 5.888 23.347 4.762 46.131 3.174 69.939zM243.558 139.52c-8.858-7.731-17.92-16.691-29.645-19.763-6.042-1.587-7.066 2.355-6.298 7.27 4.301-1.894 8.653-2.611 11.162-0.973 16.435 10.906 32.41 22.323 48.179 34.099-7.834-6.861-15.565-13.824-23.398-20.685zM518.707 416.922c61.542-49.152 148.736-46.387 212.429-2.202 1.024 0.717 1.792 1.382 2.406 2.048 23.45 18.842 37.837 45.568 47.872 73.626 10.138 28.365 12.851 54.221 2.048 83.098-24.218 64.87-83.763 106.445-153.446 100.557-63.232-5.325-126.31-40.090-149.862-101.837-19.866-52.122-6.4-119.398 38.502-155.29zM516.198 562.842c12.288 42.957 46.080 88.422 93.338 93.696 59.341 6.605 109.107-38.451 130.15-90.522 10.854-26.778 10.803-50.893 1.741-77.978-8.499-25.293-20.736-55.194-42.701-71.834-45.107-31.334-99.328-17.306-140.134 15.206-35.379 28.262-54.886 87.654-42.394 131.43z" />
<glyph unicode="&#xe918;" glyph-name="SEPARATION" horiz-adv-x="7366" d="M6895.256 468.83c-415.983 20.791-832.197 37.44-1248.563 50.022-414.295 12.429-828.744 20.868-1243.193 25.088-416.52 4.296-833.041 4.45-1249.561 0.46s-832.964-12.122-1249.331-24.397c-416.367-12.275-832.58-28.694-1248.563-49.255-51.020-2.532-101.963-5.14-152.906-7.749-19.334-0.997-15.728-71.504 3.99-70.43 415.983 21.559 832.12 38.974 1248.487 52.247 414.295 13.196 828.667 22.326 1243.116 27.39 416.52 5.064 833.041 5.984 1249.561 2.762s832.964-10.588 1249.407-22.096c416.367-11.508 832.657-27.159 1248.717-46.953 51.020-2.455 101.963-4.91 152.982-7.442 17.876-0.921 17.032 69.433-3.99 70.43v0z" />
</font>
</defs>
</svg>
